#TITLE:MixByVitualDJ;
#SUBTITLE:;
#ARTIST:Ryou Yami;
#TITLETRANSLIT:;
#SUBTITLETRANSLIT:;
#ARTISTTRANSLIT:;
#CREDIT:Ryou Yami;
#BANNER:Ryou.png;
#BACKGROUND:Cry-bg.jpg;
#LYRICSPATH:;
#CDTITLE:;
#MUSIC:MixByVitualDJ.mp3;
#OFFSET:0.520;
#SAMPLESTART:100.000;
#SAMPLELENGTH:12.000;
#SELECTABLE:YES;
#BPMS:0.000=135.100,245.500=163.000,745.500=151.980;
#STOPS:245.500=0.440
,896.500=0.320
;
#BGCHANGES:;
// cache tags:
#FIRSTBEAT:1.500;
#LASTBEAT:1030.000;
#SONGFILENAME:Songs/nhac/MixByVitualDJ/MixByVitualDJ.sm;
#HASMUSIC:1;
#HASBANNER:1;
#MUSICLENGTH:409.338;
// end cache tags

//---------------dance-single - ----------------
#NOTES:
     dance-single:
     :
     Challenge:
     15:
     1.000,1.000,1.000,0.423,1.000,2596.000,732.000,173.000,0.000,168.000:
0000
0000
0000
0100
0010
0001
1000
0020
,
0000
0000
0000
0000
0130
1000
0020
0000
,
0000
0000
0000
0000
0130
0001
1000
0020
,
0000
0000
0000
0000
0000
0000
0000
0130
,
0000
0000
0000
0000
0000
0000
0010
0000
0001
0000
1000
0000
0010
0000
0200
0010
,
0000
0001
0010
0000
0001
0010
0300
0000
0010
0000
1000
0000
0200
0000
1000
0010
,
0000
1000
0010
0000
1000
0010
0300
0000
0100
0000
0001
0000
1000
0000
1000
0100
,
0001
0100
1000
0100
0011
0100
1000
0100
0001
0010
1000
0010
0001
0010
1100
0000
,
0010
0000
0010
0000
0000
0000
0100
0000
0100
0000
0100
0000
0000
0000
0100
0010
,
0001
0000
1000
0100
0010
0000
0001
0010
0100
0000
0010
0100
1000
0000
0100
0010
,
0100
0000
0001
0010
0001
0000
1100
0011
1100
0000
0101
1010
0101
0000
1101
0010
,
0001
0000
1001
0010
0100
0000
0011
0100
1000
0000
0101
0010
0100
0000
1010
0100
,
0010
0000
1010
0001
0010
0000
1001
0110
1001
0000
0001
0010
0100
0000
1000
0100
,
0010
0000
0010
0100
1000
0000
0100
0010
0001
0000
1000
0010
0100
0000
0110
1000
,
0100
0000
0011
0100
0010
0000
1100
0001
0010
0000
0001
0100
0011
0000
1000
0010
,
1100
0000
0001
0010
0100
1000
0100
0010
0001
0010
0100
1001
0010
0100
1000
0100
,
0010
1001
0100
0010
0001
0000
0101
0000
1010
0000
0101
0000
0000
0000
0200
0000
,
0000
0300
0002
0000
0003
0000
1000
0010
0000
1000
0000
0000
0100
0000
2200
0000
,
0000
3300
0022
0000
0000
0033
1000
0100
0000
0001
0000
0000
0100
0000
0020
0000
,
0000
0030
1000
0002
0000
0000
0003
0101
,
0010
1010
0101
0100
0010
1000
0000
0020
,
0000
0030
0020
0000
0000
0030
0101
1010
0000
0000
0110
0000
0110
0000
0022
0000
,
0000
0033
2200
0000
0000
3300
1100
0011
0000
0000
0010
0000
1000
0000
2200
0000
,
0000
3300
0022
0000
0000
0033
0100
0000
0001
0000
1000
0000
0010
0000
0000
0000
,
0100
0000
0010
0000
1000
0000
0001
0000
0100
0010
0000
1000
0100
0000
0001
0000
,
1000
0001
0000
0100
0000
0001
0200
0000
0000
0000
0000
0300
0010
0000
1000
0001
,
0000
0100
0000
0010
2000
0000
0000
0000
0000
0000
0000
0000
0000
3000
0100
0000
,
0000
0010
0000
0000
1000
0000
0001
0000
0000
0000
0100
0000
0010
0000
1000
0000
,
0000
0010
0010
0010
0000
0000
0000
0100
,
0011
1100
0000
0101
0000
1100
0022
0000
0000
0000
0033
0000
0100
0000
0101
1010
,
0000
0110
0000
1010
0202
0000
0000
0000
0000
0000
0000
0000
0000
0303
1000
0000
,
0000
0010
0000
0000
0100
0000
0001
0000
0000
0000
1000
0000
0010
0000
0100
0000
,
0000
0101
0000
1010
0000
0110
0000
0100
,
0010
0000
1000
0100
0010
0001
0010
0100
0010
0100
0010
0000
0000
0000
0000
0010
,
1000
0001
0000
0001
0100
0000
2000
0000
3022
0000
0033
0100
0010
0000
1000
0000
,
0000
0010
0000
0000
0010
0000
0010
0000
0000
0000
0000
0000
0000
0000
0100
0000
,
0000
0010
0000
0000
1000
0000
0001
0000
0100
0000
0010
0000
1000
0000
0010
0000
,
0000
0100
0000
0000
0010
0000
0100
0000
0000
0000
0000
0000
0000
0010
0100
1000
,
0000
0010
0001
0010
0001
0010
0100
0010
0100
0000
0100
0000
0000
0000
0100
0010
,
0001
0000
0100
1000
0100
1000
0100
1000
0100
0000
1000
0000
0000
0000
0010
0000
,
1010
0100
0101
1010
0101
0011
0101
0020
,
0030
1000
0000
0000
0001
0000
0200
0000
0000
0000
0000
0000
0000
0300
0001
0010
,
0100
0000
0100
0010
0100
0001
1000
0010
1000
0010
0000
0000
1000
0100
0010
1000
,
0000
0001
0010
0000
0010
0000
0010
0000
0000
0000
0000
0000
0000
0001
0010
0100
,
0000
0010
1000
0100
1000
0100
0010
0100
0010
1000
0100
0000
0100
0000
0100
0001
,
0000
1000
0000
0000
0010
0000
0100
0000
0000
0000
0000
0000
0000
1000
0100
0010
,
0100
0000
0100
0000
0000
1000
0010
0100
0010
1000
0000
0000
0000
0000
0001
0010
,
0100
0010
0000
0010
0000
0000
0100
0010
0001
0010
1000
0000
0000
0000
0000
0010
,
0000
0000
0100
0000
0010
0000
1000
0000
0000
0001
0000
0000
0100
0000
0001
0000
,
0000
0000
1000
0010
0000
0100
0010
0000
1000
0001
0000
0100
0010
0001
0010
0000
,
1000
0100
1000
0010
1000
0100
0010
0001
1000
0100
1000
0110
0001
0110
0001
1000
,
0001
1000
0100
0001
0010
1000
0200
0010
0001
0010
1000
0010
0001
0010
0301
0020
,
0100
1000
0100
0001
0100
1030
2100
0010
0001
0010
0100
0001
0010
3100
0021
0100
,
1000
0001
0100
1000
0001
0130
0201
0010
1000
0010
0001
0010
1000
0310
0102
1000
,
0100
0010
0100
1000
0100
0013
2100
0010
0100
0001
0010
0100
0010
3001
0120
1000
,
0100
0001
0100
1000
0001
0130
0201
0010
1000
0010
0001
1000
0010
0301
0012
0100
,
1000
0010
0100
0010
1000
0103
2010
0100
0010
0001
0010
0100
0010
3100
1020
0100
,
0001
0100
1000
0100
0001
1030
0200
0010
0001
0010
1000
0010
0001
0310
0102
1000
,
0100
0010
0100
1000
0010
0100
1003
0100
0010
0001
0010
0100
1000
0100
0010
0001
,
0010
0100
1000
0100
0010
0001
0010
0100
0010
0001
0010
0100
0010
0001
0010
0100
,
1000
0100
0010
0001
1010
0100
0001
0010
1000
0100
0010
1000
0100
0001
0010
0100
,
2002
0000
0000
0000
,
0000
0000
0000
3003
1111
0110
1100
0200
,
0000
0300
0110
0011
0110
0020
0000
0000
,
0000
0000
0000
0000
,
0000
0000
0000
0000
,
0000
0000
0000
0000
0000
0000
0000
0030
1010
0000
0111
0000
1010
0000
0200
0000
,
0000
0300
0011
0110
1100
0200
0000
0000
,
0000
0000
0000
0000
,
0000
0000
0000
0000
,
0000
0000
0000
0000
0000
0000
0000
0300
1101
0010
0100
0010
0100
1000
0001
0010
,
0100
1000
0101
1000
0011
1000
0100
0010
1001
0010
0100
0010
0100
1001
0010
0100
,
1001
0010
0100
1000
0100
0010
1001
0100
0010
0001
1110
0001
0010
0100
1001
0010
,
0100
1000
0111
1000
0100
0010
1001
0100
0010
0001
1100
0010
0100
1001
0010
0100
,
1000
0100
0010
1001
0100
0010
0001
0000
1010
0000
0111
0000
1010
0000
1110
0000
,
0110
0011
1010
0110
0101
0111
1101
0110
,
1100
0000
0110
0000
1000
0001
1010
0100
0010
1001
0100
0010
0001
1010
0100
0010
,
0101
1000
0101
0010
0100
0010
0001
0010
0100
0011
0100
0000
1111
0000
0000
0000
,
0000
0000
0000
0100
0001
0010
0100
1000
0010
0100
1000
0100
0010
0001
0010
1000
,
0100
0001
0010
0100
0001
0010
0001
0100
1010
0100
0010
0001
0100
0010
1000
0100
,
0010
0100
1000
0001
0010
0100
0010
0001
1000
0100
1000
0010
0100
0010
0001
0100
,
0010
0100
1000
0001
0010
0100
0001
0010
1000
0100
0010
1000
0100
0001
0010
1000
,
0100
1011
0100
0001
1000
0110
0001
1000
0010
1101
0010
1000
0001
0110
1000
0001
,
0100
1010
0001
1000
0110
0001
1000
0010
1000
0001
0110
1000
0001
0100
1011
0100
,
0001
1000
0110
0001
1000
0010
1100
0001
1000
0010
1100
0001
1000
0010
1100
0001
,
1000
0010
1000
0001
1100
0010
1000
0001
1100
0010
1000
0001
0100
0011
1000
0001
,
0110
1000
0001
0100
0011
1000
0001
1100
0010
1100
0001
1000
0001
0100
0001
1000
,
0101
1000
0100
0010
0001
1100
0010
0001
0010
1100
0010
0100
1000
0011
0100
0010
,
0001
1100
0010
0100
1000
0100
0010
0001
0100
0010
0001
0010
1100
0010
0001
0010
,
0100
1000
0100
0010
0001
0010
1000
0001
0100
1000
0001
0100
0001
1000
0010
1000
,
0100
0001
0010
1000
0001
0010
1000
0010
0001
1100
0001
1000
0010
0001
1000
0100
,
0001
1000
0001
0100
0010
1000
0001
1000
0010
0100
0001
0100
1000
0001
1000
0010
,
0001
1000
0001
0100
0010
1000
0001
0010
1000
0100
0001
0010
0100
0001
0010
1000
,
0100
0011
1000
0100
0010
0100
1000
0101
1010
0001
0110
1000
0101
0010
1001
0010
,
0101
1000
0101
0010
0100
1000
0100
0010
1101
0000
0110
0000
1010
0000
0101
0000
,
1010
0110
0101
0111
1010
1110
0011
1100
,
0110
0011
0010
0101
0100
1110
0100
0010
,
0101
0010
1010
0100
0110
0100
1010
0010
,
0111
1010
0111
2002
0000
0000
0000
0000
,
0000
0000
0000
0110
0110
0000
0000
0000
,
0000
0000
0000
0000
3003
0000
0000
0000
0000
0000
0000
0000
0000
0010
0100
1000
0101
0000
0000
0000
0000
0000
0000
0000
1001
0000
0000
0000
0000
0001
0010
0100
,
1001
0000
0000
0000
0000
0000
0000
0000
1001
0000
0000
0000
0000
0101
0010
0100
1001
0000
0000
0000
0110
0000
0000
0000
1010
0000
0000
0000
0000
0101
0010
0100
,
1001
0000
0000
0000
1011
0000
0000
0000
1101
0000
0000
0000
0000
0100
0010
0001
0010
0100
1000
0100
0010
0001
0010
0000
0100
0000
1000
0000
0101
0000
0010
0000
,
0100
0000
0000
1011
0000
0000
0100
0000
0000
0010
0000
0000
1101
0000
0000
0010
0000
0000
0100
0000
0000
1000
0000
0000
1001
0000
0000
0100
0000
0000
0010
0000
0000
0001
0000
0000
1001
0000
0010
0000
0100
0000
1001
0000
0010
0000
0100
0000
,
1001
0010
0100
1001
0010
0100
1001
0010
0100
1001
0000
0000
1011
0000
0000
0110
0000
0000
1010
0000
0000
0220
0000
0000
,
0000
0000
0000
0330
1010
0000
0101
0000
1010
0000
2020
0000
0000
0000
0000
0000
,
0000
0000
0000
0000
0000
0000
0000
0000
0000
0000
0000
0000
0000
0000
0000
3000
,
2002
0000
0000
0000
0000
0000
0000
0000
0200
0000
0000
0030
3000
0000
0000
0000
,
0020
0000
0000
0000
0003
0000
0000
0330
1101
0000
1011
0000
1101
0000
0220
0000
,
0000
0000
0000
0330
1100
0000
0011
0000
1100
0000
0220
0000
0000
0000
0000
0000
,
0000
0000
1331
0101
,
1100
0000
0011
0000
1100
0000
0000
0000
2020
0000
0000
3030
0202
0000
0000
0000
,
0000
0000
0000
0000
0000
0000
0000
0300
0200
0000
0020
0000
2000
0030
0020
0000
,
0303
0000
0000
3030
0002
0000
0020
0000
2000
0000
0200
0000
0000
0000
0000
0000
,
0000
0000
0000
3333
0110
0000
0110
0000
,
1001
1001
0110
0000
0101
0000
1010
0000
,
0101
0000
0010
0000
2000
0020
0200
0002
,
0030
0000
0000
3303
0020
0000
2000
0000
0200
0000
0002
0000
0000
0000
0000
0000
,
0000
0000
0000
0000
,
0000
0000
0000
3333
0000
0000
0101
0000
0000
0000
0000
0000
1010
0000
0000
0000
,
1110
0111
1110
0000
2002
0000
0000
0000
,
0000
0000
0000
0000
0000
0000
0000
3000
2020
0000
0000
0000
0000
0000
0000
0000
,
0003
0000
0002
0000
,
0200
0000
0000
3033
2002
0000
0000
0000
0000
0000
0000
0000
0000
0000
0000
0000
,
0000
0000
0000
0000
0000
0000
0000
3000
0020
0000
0000
0000
0000
0000
0000
0300
,
2200
0000
0003
0000
0000
0000
0000
0000
0002
0000
0000
3030
0000
0000
0000
0000
,
2020
0000
0000
0300
0200
0000
0000
3030
2020
0000
0000
0000
0000
0000
0000
3333
,
0202
0000
0000
0000
0000
0000
0000
0000
2020
0000
0000
0000
0000
0000
0000
0333
,
0002
0000
0000
0000
0000
0000
0000
3003
0220
0000
0000
0000
0000
0000
0000
0000
,
0000
0000
0000
0300
2202
0000
0000
3030
2020
0000
0000
0000
0000
0000
0000
3303
,
0202
0000
0000
0000
2000
0000
0000
0330
0220
0000
0000
0000
0000
3000
2000
0000
,
0000
0000
0000
3030
2020
0000
0000
0000
0000
0000
0000
0000
0000
0303
0000
0000
,
0000
0000
0000
0000
0000
0000
0000
0000
0000
0000
0202
0000
0000
0000
0000
0030
,
0020
0000
0000
3003
2002
0000
0000
3030
2020
0000
0000
0000
0000
0000
0000
0303
,
0202
0000
0000
3003
2002
0000
0000
3030
2020
0000
0000
0000
0000
0000
0000
3030
,
2020
0000
0000
0000
0000
0000
0000
0303
0202
0000
0000
0000
0000
0000
0000
0003
,
0002
0000
0000
3333
0011
0110
0011
0220
,
0000
0330
0000
0000
1100
0000
0110
0000
1100
0000
0220
0000
0000
0000
0000
0330
,
1110
0111
1110
0111
1110
0000
1010
0110
,
0000
1010
0000
0002
0000
0020
0000
0200
,
0000
2000
0000
3333
1011
1101
1011
1101
,
0000
0000
0110
1100
0110
1100
0000
0000
,
1100
0110
0011
0110
1100
0000
0101
0110
,
0000
0101
0000
2000
0000
0200
0000
0020
,
0000
0002
0000
3333
1011
0010
0011
0110
,
0000
0000
1100
0101
1100
0101
0000
0000
,
0101
1010
0110
0101
0011
0000
1010
0101
,
0000
2000
0000
0200
0000
0020
0000
0002
,
0000
0003
0002
0000
0000
0300
0200
0000
0000
0000
0000
0000
0000
0000
0000
0000
,
0000
3000
2000
0030
0020
0303
0202
0000
0000
0000
0000
0000
0000
0000
0000
0000
,
0000
3333
0020
0000
2000
0000
0202
0000
0000
0000
0000
0000
0000
0000
0000
0330
,
0000
0000
0110
0110
,
0110
0000
0000
0000
0110
0000
0000
3003
1101
0010
0001
0010
0100
1000
0100
0010
,
1001
0010
0100
1001
0010
0100
1000
0101
0010
0001
0010
0100
1000
0010
0001
1110
,
0001
0010
0100
1001
0010
0100
1000
0101
0010
0100
1000
0101
0010
0100
1000
0101
,
0010
0100
1000
0100
0010
0101
1000
0100
0010
0101
1000
0100
0010
0001
1010
0100
,
0010
1001
0100
0010
0001
1010
0100
0010
0101
1000
0101
0010
0100
0010
0001
0010
,
0100
0011
0100
0001
1000
0010
0101
1000
0010
1000
0101
1000
0001
0100
1010
0001
,
1000
0010
0101
1000
0001
0100
0001
1000
0010
0001
1000
0010
1000
0101
1000
0010
,
1000
0001
0100
0001
1000
0010
1000
0100
0010
0001
0100
0010
0001
0010
0100
1000
,
0100
0001
0010
1000
0100
0010
1000
0100
1000
0010
0101
0010
0100
1011
0100
0011
,
0100
0011
0100
0010
0001
1010
0001
1010
0001
1100
0001
0110
0001
1110
0001
0110
,
1000
0110
0001
0010
1101
0010
0101
0010
1101
0010
0101
0010
1100
0011
0100
1000
,
0110
0001
1010
0100
0011
1100
0011
0100
0011
1100
0010
0001
1100
0011
1000
0110
,
1000
0011
0100
0011
1000
0011
0100
1001
0110
1001
0010
0100
0011
1000
0011
1000
,
0011
1000
0011
1000
0110
0001
1100
0001
1100
0001
1100
0001
1100
0001
1100
0001
,
0010
1100
0010
1001
0010
1100
0010
1001
0010
1100
0010
1101
0010
0100
1011
0100
,
0010
0000
0000
1000
0001
0000
0010
0000
0100
0000
1001
0000
0010
0000
0100
0000
1001
0000
0010
0000
0100
0000
1000
0000
0111
0000
0000
0000
0000
0000
0000
0000
0000
0000
0000
0000
0101
0000
0000
0000
0000
0000
1010
0000
0000
0000
0000
0000
,
0000
0000
1010
0000
0101
0000
0100
0010
1001
0010
0100
1011
0100
0010
1101
0010
,
0100
1000
0100
0010
1001
0100
0010
1101
0010
0100
1001
0010
0100
1001
0010
0100
,
0010
0101
1000
0101
0010
0100
1000
0101
0010
0100
1000
0101
0010
0100
1000
0101
,
0010
0100
1000
1010
0100
0010
0001
1010
0100
0010
0001
1010
0100
0010
0001
1010
,
0100
0010
0001
0010
0100
1000
1001
0100
0010
0001
1001
0010
0100
1000
0100
0010
,
1100
0010
0001
0010
1100
0010
1100
0010
0001
0010
0100
1000
0100
0010
1000
0100
,
1010
0100
0010
0001
0010
0101
1000
0100
0010
0101
1000
0100
0010
0101
1000
0100
,
0010
0101
0001
0010
0100
1010
0001
0010
0100
1000
0101
0010
0100
1000
0101
0010
,
0100
1000
1000
0100
0010
0001
0010
0100
1000
0100
0001
1100
0010
0001
1100
0010
,
1001
0001
1100
0001
0010
1000
0100
0011
1000
0100
0011
0100
1000
0011
1000
0011
,
0100
1000
0001
0010
1100
0001
1100
0010
0100
0011
1000
0011
0100
0010
1000
0010
,
0101
1000
0001
0110
1000
0011
1000
0010
0100
0001
1000
0100
0001
0010
1000
0001
,
0010
1000
0100
0001
0010
1000
0111
1000
0100
0010
1001
0100
0010
0001
1110
0001
,
0010
0000
0100
0000
1000
0000
0100
0000
0010
0000
0001
0000
1000
0100
0010
0100
1001
0000
0010
0000
0100
0000
1000
0000
0101
0000
0010
0000
0001
0000
1010
0000
,
0100
0000
0010
0000
0001
0000
0010
0000
1001
0000
0010
0000
0100
0000
1000
0000
0100
0000
0010
0000
0100
0000
1000
0000
0100
0000
0010
0000
0001
0010
0100
0010
,
1001
0000
0100
0000
0010
0000
0100
0000
1001
0000
0010
0000
0001
0010
0100
0010
1001
0000
0000
0000
0000
0000
0000
0000
2002
0000
0000
0000
0000
0000
0000
0000
,
0000
3003
0100
0010
0100
1001
0100
0010
0001
0010
0100
1010
0100
0010
0001
0010
,
0100
0010
1100
0010
0001
1010
0100
0010
0001
0010
0100
1000
0100
0010
0001
0010
,
0100
1000
0100
0010
0001
0010
0200
0000
0000
0000
0000
0000
0000
0000
0000
0000
,
0000
0000
0000
0000
0000
0000
0000
0000
0000
0000
0000
0000
0310
0001
0010
0100
,
1001
0010
0100
1001
0010
0100
1001
0010
0100
1000
0000
0000
1010
0000
0000
0100
,
0000
0000
1100
0000
0100
0000
0110
0000
0100
0000
0000
0000
0110
0000
0000
1010
,
0000
0000
1100
0000
0110
0000
0110
0000
1101
0000
0000
0000
0001
0010
0100
1001
,
0010
0000
0000
0100
0000
0000
1001
0000
0000
0010
0000
0000
0100
0000
0000
1001
0000
0000
0010
0000
0000
0100
0000
0000
1000
0000
0000
0100
0000
0000
0010
0000
0000
0100
0000
0000
0010
0000
0100
0000
1000
0000
0100
0000
0010
0000
0001
0000
,
0010
0100
1000
0100
0010
0001
0010
0100
1000
0100
0010
0001
0010
0100
1000
0100
0010
0001
0000
0000
0000
1100
0000
0000
,
0000
0011
0000
1100
0011
0000
0000
0011
,
0000
0110
0000
0011
1100
0000
0000
1010
,
0000
0101
0000
0101
1010
0000
0101
0000
,
1010
0000
1010
0010
0010
0000
1010
0000
,
0100
0000
0111
1110
0111
0000
0101
0000
,
0110
1100
0011
0110
0011
0000
1010
0000
,
1100
0100
1100
1000
1100
0000
0100
0000
,
0100
0010
0000
0100
0010
0000
1000
0010
,
0000
0000
0100
0000
0001
0000
1000
0000
0010
0000
0000
0000
1000
0100
0011
0100
,
1000
0000
0010
0000
0100
0000
0000
0000
0010
0000
0000
0000
1000
0100
0010
1101
,
0010
0100
1011
0100
0010
0001
0010
0100
1000
0000
0100
0000
0020
0000
0000
0000
,
0000
0000
0000
0000
0000
0030
0101
1010
,
0000
0000
1010
0000
0101
0000
0100
0000
0100
0000
0000
0000
1001
0100
0010
1001
,
0100
0011
0100
0000
0110
0000
0000
0000
0000
0000
0000
0000
0100
0010
1001
0100
,
0010
1101
0010
0100
1000
0100
0011
0000
1100
0000
0000
0000
0011
0000
0000
1100
,
0000
0000
0011
0000
0000
1100
0000
0000
0011
0000
1100
0000
0000
0000
0100
0000
,
1010
0110
0101
1110
0101
0111
1010
1101
,
0110
1100
0101
0010
1010
0100
0111
0010
,
1110
0100
0110
0010
0011
0110
0100
1110
,
0100
1110
0101
0111
1010
1101
0010
0111
,
0100
1110
0011
1100
0110
0111
1010
1101
,
1001
1011
1110
1010
1110
0101
0111
1100
,
0100
1100
0110
0010
0011
0001
0111
0100
,
1110
0000
0010
0000
1100
0000
0100
0000
0111
0000
1110
0000
0100
0000
1001
0010
,
0100
1001
0100
0010
0100
1011
0100
0010
0001
1000
0101
1000
0011
0100
0011
1000
,
0011
0100
1010
0101
1010
0001
0100
0011
1000
0011
1000
0011
1000
0011
1000
0101
,
0010
1100
0010
1100
0010
1100
0010
1100
0010
1100
0010
0001
1100
0001
1010
0001
,
1100
0001
1010
0001
1100
0001
1110
0001
0100
1011
0100
0001
0100
1001
0100
1010
,
0001
1010
0100
1010
0001
0110
1001
0110
1000
0001
1010
0100
1010
0100
1010
0100
,
1010
0100
1001
0010
0101
1000
0101
0010
0101
1000
0101
0010
0101
1000
0010
0101
,
1000
0110
1000
0101
1000
0110
1000
0101
1000
0111
1000
0001
1110
0001
0100
0001
,
1010
0000
1101
0000
0000
0000
0000
0000
0010
0100
1000
0010
0100
0010
0001
0010
,
1000
0100
1000
0001
0010
0100
1000
0100
1000
0001
0010
0100
1001
0001
0010
0100
,
1000
1001
0100
0010
0001
0010
0100
1000
1010
0001
0010
0100
1000
1001
0001
0010
,
0100
1000
1001
0001
0010
0100
1000
0100
0010
0001
1010
0100
0010
0001
0010
1100
,
0010
0001
0010
1100
0001
0010
1100
0010
1000
0100
0011
0100
1000
0100
0011
0100
,
1000
0100
0010
1100
0010
0001
1100
0010
0001
0010
0100
1001
0010
0100
1001
0100
,
0010
1101
0010
0100
1000
1000
0100
0010
0001
0010
1100
0000
0101
0000
1100
0000
,
0011
0000
0101
0010
0100
0000
0100
0010
0001
0000
0100
0001
1010
0000
0000
0101
,
0000
0000
1010
0000
0101
0000
0000
0000
1000
0100
0010
1000
0001
0010
1000
0010
,
0100
0010
0001
1000
0001
0100
0010
1000
0001
1000
0001
0100
0010
1000
0101
0100
,
0010
1000
0001
0101
1000
0010
0100
0010
1000
0001
0011
0100
0010
1000
0001
0101
,
0100
0010
1000
0001
0101
0100
0010
1000
0001
1000
0010
0100
0011
1000
0010
0100
,
0010
1001
0010
0100
0010
1001
0100
0010
1001
0010
0001
1000
0110
1000
0001
1000
,
0110
1000
0001
1000
0010
1001
0010
0100
1001
0010
0100
0010
1000
0101
0010
1000
,
0101
1000
0010
1101
0010
1000
0001
0001
1000
0010
0100
0010
0111
1000
0010
1000
,
0010
0100
0001
1000
0010
0100
0011
0100
1001
0100
0010
1000
0101
1000
0010
1000
,
0010
0101
1000
0010
0101
1000
0010
0100
0010
1000
0101
0010
1000
0001
1110
0001
,
1000
0010
0101
1000
0010
0100
1011
0100
0010
1000
0101
0001
1000
0010
0101
1000
,
0001
0110
1000
0001
0100
0001
1000
0100
0100
1011
0100
0001
0100
0001
0100
0010
,
1000
0010
0010
1001
0100
0011
1000
0001
0010
1001
0001
1000
0010
0100
1011
0100
,
1011
0100
0010
1001
0110
0001
0010
1100
0001
0100
0010
1101
1000
0010
1000
0100
,
1000
0110
0001
1100
0001
0010
0100
1001
0100
0010
1001
0101
1000
0100
1010
0001
,
0110
0001
0100
0010
0100
0001
1000
0100
0110
0001
1000
0001
1000
0010
0100
0001
,
1000
0010
1100
0010
0101
0010
1000
0001
0110
0001
1000
0001
1000
0110
0001
1000
,
0110
0001
1000
0010
1000
0001
0110
1000
0001
0100
1011
0100
0001
1000
0110
0001
,
1000
0010
1101
0010
1000
0001
0110
1000
0001
0100
1010
0001
1000
0110
0001
1000
,
0010
1000
0001
0110
1000
0001
0100
0111
1000
0001
1000
0001
0100
0010
1000
0001
,
0100
0011
0100
1010
0100
0001
1000
0110
1000
0001
1000
0001
0110
1000
0001
0110
,
1000
0001
0100
0001
1000
0110
0001
1000
0010
1101
0010
1000
0001
0110
1000
0001
,
0100
1011
0100
0001
1000
0110
0001
1000
0010
0101
1000
0001
0110
1000
0001
0100
,
0001
1000
0110
0001
1000
0010
1101
0010
1000
0010
1000
0001
0100
0010
1000
0001
,
1100
0001
0110
0001
1000
0010
0101
0010
1000
0010
1000
0101
0010
1000
0101
0010
,
1000
0001
1000
0010
0101
1000
0010
0100
1011
0100
0010
1000
0101
0010
1000
0001
,
1110
0010
0111
0010
0111
0000
0000
0000
;
